<?xml version="1.0" standalone="no"?>
<!DOCTYPE svg PUBLIC "-//W3C//DTD SVG 1.1//EN" "http://www.w3.org/Graphics/SVG/1.1/DTD/svg11.dtd">
<svg xmlns="http://www.w3.org/2000/svg">
<metadata>Copyright (C) 2023 by original authors @ fontello.com</metadata>
<defs>
<font id="fluid-checkout-icons" horiz-adv-x="1000" >
<font-face font-family="fluid-checkout-icons" font-weight="400" font-stretch="normal" units-per-em="1000" ascent="850" descent="-150" />
<missing-glyph horiz-adv-x="1000" />
<glyph glyph-name="alert-octagon" unicode="&#xe800;" d="M671-108h-342c-12 0-21 4-29 12l-246 246c-8 4-12 17-12 29v342c0 12 4 21 12 29l246 246c4 8 17 12 29 12h346c13 0 21-4 29-12l246-246c4-4 8-17 8-29v-346c0-12-4-21-12-29l-246-246c-4-4-17-8-29-8z m-325 83h312l221 221v308l-225 221h-308l-221-221v-312l221-217z m196 375v167c0 25-17 41-42 41s-42-16-42-41v-167c0-25 17-42 42-42s42 17 42 42z m-13-196c4 4 9 9 9 13 0 4 4 12 4 16 0 5 0 13-4 17-5 4-5 8-9 13 0 0-4 4-8 4s-4 4-8 4c-17 8-34 4-46-8-4-5-9-9-9-13 0-4-4-8-4-17 0-12 4-20 13-29 8-8 16-12 29-12 17 0 25 4 33 12z" horiz-adv-x="1000" />

<glyph glyph-name="alert-triangle" unicode="&#xe801;" d="M500 767c42 0 81-23 103-60l0 0 339-587c22-38 22-85 1-124-22-38-61-62-104-63l0 0-679 0c-42 1-81 25-103 63-21 39-21 86 1 125l0 0 339 586c22 37 61 60 103 60z m0-83c-14 0-27-8-34-20l0 0-339-586c-7-12-7-28 0-41 7-13 20-21 34-21l0 0 678 0c14 0 27 8 34 21 7 13 7 29 0 41l0 0-339 586c-7 12-20 20-34 20z m0-501c23 0 42-18 42-41 0-22-16-39-37-42l-5 0c-23 0-42 19-42 42 0 21 16 39 37 41l5 0z m0 334c21 0 39-16 41-37l1-5 0-167c0-23-19-41-42-41-21 0-39 16-41 37l-1 4 0 167c0 23 19 42 42 42z" horiz-adv-x="1000" />

<glyph glyph-name="arrow-left" unicode="&#xe802;" d="M134 323l253-252c8-8 16-13 29-13 12 0 21 5 29 13 17 17 17 42 0 58l-179 179h566c25 0 42 17 42 42s-17 42-42 42h-566l179 179c17 17 17 42 0 58-17 17-42 17-58 0l-250-250c-5-4-9-8-9-12-4-9-4-21 0-34 0-3 3-6 6-10z" horiz-adv-x="1000" />

<glyph glyph-name="arrow-right" unicode="&#xe803;" d="M863 321l-250-250c-9-8-17-13-30-13-12 0-20 5-29 13-16 17-16 42 0 58l179 179h-566c-25 0-42 17-42 42s17 42 42 42h566l-179 179c-16 17-16 42 0 58 17 17 42 17 59 0l250-250c4-4 8-8 8-12 4-9 4-21 0-34 0-4-4-8-8-12z" horiz-adv-x="1000" />

<glyph glyph-name="check-small" unicode="&#xe805;" d="M683 505l-239-238-88 87a37 37 0 0 1-53 0 37 37 0 0 1 0-53l114-114a41 41 0 0 1 27-11c7 0 19 4 26 11l267 265a37 37 0 0 1 0 53 37 37 0 0 1-54 0z" horiz-adv-x="1000" />

<glyph glyph-name="check" unicode="&#xe806;" d="M863 536l-459-458c-8-8-16-13-29-13-12 0-21 5-29 13l-208 208c-17 17-17 42 0 59 16 16 41 16 58 0l179-180 429 430c17 16 42 16 59 0 16-17 16-42 0-59z" horiz-adv-x="1000" />

<glyph glyph-name="chevron-down-medium" unicode="&#xe807;" d="M516 44l435 413a23 23 0 0 1-31 33l-420-399-420 399a23 23 0 0 1-31-33l435-413c9-9 23-9 32 0z" horiz-adv-x="1000" />

<glyph glyph-name="chevron-down" unicode="&#xe808;" d="M779 453l-250-250c-8-8-16-12-29-12-12 0-21 4-29 12l-250 250c-17 17-17 42 0 59 17 16 42 16 58 0l221-221 221 221c17 16 42 16 58 0 17-17 17-42 0-59z" horiz-adv-x="1000" />

<glyph glyph-name="chevron-left-medium" unicode="&#xe809;" d="M194 366l413 435a23 23 0 0 0 33-31l-399-420 399-420a23 23 0 0 0-33-31l-413 435c-9 9-9 23 0 32z" horiz-adv-x="1000" />

<glyph glyph-name="chevron-left" unicode="&#xe80a;" d="M654 137c17-17 17-42 0-59-8-8-16-12-29-12-12 0-21 4-29 12l-250 250c-17 17-17 42 0 59l250 250c17 16 42 16 58 0 17-17 17-42 0-59l-221-220 221-221z" horiz-adv-x="1000" />

<glyph glyph-name="chevron-right-medium" unicode="&#xe80b;" d="M806 366l-413 435a23 23 0 0 1-33-31l399-420-399-420a23 23 0 0 1 33-31l413 435c9 9 9 23 0 32z" horiz-adv-x="1000" />

<glyph glyph-name="chevron-right" unicode="&#xe80c;" d="M654 328l-250-250c-8-8-16-12-29-12-12 0-21 4-29 12-17 17-17 42 0 59l221 221-221 220c-17 17-17 42 0 59 17 16 42 16 58 0l250-250c17-17 17-42 0-59z" horiz-adv-x="1000" />

<glyph glyph-name="chevron-up-medium" unicode="&#xe80d;" d="M516 656l435-413a23 23 0 0 0-31-33l-420 399-420-399a23 23 0 0 0-31 33l435 413c9 9 23 9 32 0z" horiz-adv-x="1000" />

<glyph glyph-name="chevron-up" unicode="&#xe80e;" d="M779 203c-8-8-16-12-29-12-12 0-21 4-29 12l-221 221-221-221c-16-16-41-16-58 0-17 17-17 42 0 59l250 250c17 16 42 16 58 0l250-250c17-17 17-42 0-59z" horiz-adv-x="1000" />

<glyph glyph-name="x-circle" unicode="&#xe815;" d="M824 674c-180 180-468 180-648 0s-180-468 0-648 468-180 648 0 180 468 0 648z m-589-589c-147 147-147 383 0 530s383 148 530 0 148-383 0-530-383-148-530 0z m412 118c-17-18-41-18-59 0l-88 88-88-88c-18-18-42-18-59 0s-18 41 0 59l88 88-88 88c-18 18-18 42 0 59s41 18 59 0l88-88 88 88c18 18 42 18 59 0s18-41 0-59l-88-88 88-88c18-18 18-42 0-59z" horiz-adv-x="1000" />

<glyph glyph-name="loader-circle" unicode="&#xe816;" d="M183 621c120 140 318 185 487 110 19-9 27-31 19-50-9-19-31-28-50-20-138 62-300 25-398-89-98-115-109-281-27-407 82-127 238-185 383-142 144 43 244 176 244 327v35c0 21 17 38 38 38 21 0 38-17 38-38v-35c0-185-122-347-299-400s-367 18-467 173c-101 155-88 358 32 498z" horiz-adv-x="1000" />

<glyph glyph-name="minus" unicode="&#xe818;" d="M147 330c-12 0-21 3-30 11-9 9-12 18-12 30 0 23 18 41 42 41h707c23 0 41-18 41-41 0-24-18-41-41-41h-707z" horiz-adv-x="1000" />

<glyph glyph-name="plus" unicode="&#xe81b;" d="M541 17c0-23-17-41-41-41-12 0-21 3-29 12-9 9-12 18-12 29v313h-312c-12 0-21 3-30 11-9 9-12 18-12 30 0 23 18 41 42 41h312v312c0 24 17 42 41 42 24 0 41-18 41-42v-312h313c23 0 41-18 41-41 0-24-18-41-41-41h-313v-313z" horiz-adv-x="1000" />

<glyph glyph-name="trash" unicode="&#xe822;" d="M875 642h-167v41c0 71-54 125-125 125h-166c-71 0-125-54-125-125v-41h-167c-25 0-42-17-42-42s17-42 42-42h42v-541c0-71 54-125 125-125h416c71 0 125 54 125 125v541h42c25 0 42 17 42 42s-17 42-42 42z m-500 41c0 25 17 42 42 42h166c25 0 42-17 42-42v-41h-250v41z m375-666c0-25-17-42-42-42h-416c-25 0-42 17-42 42v541h500v-541z m-292 375v-250c0-25-16-42-41-42s-42 17-42 42v250c0 25 17 41 42 41s41-16 41-41z m167 0v-250c0-25-17-42-42-42s-41 17-41 42v250c0 25 16 41 41 41s42-16 42-41z" horiz-adv-x="1000" />

<glyph glyph-name="x" unicode="&#xe827;" d="M779 129c17-16 17-41 0-58-8-8-16-13-29-13s-21 5-29 13l-221 221-221-221c-8-8-16-13-29-13s-21 5-29 13c-17 17-17 42 0 58l221 221-221 221c-17 17-17 42 0 58s42 17 58 0l221-221 221 221c17 17 42 17 58 0s17-41 0-58l-221-221z" horiz-adv-x="1000" />

<glyph glyph-name="cart" unicode="&#xe828;" d="M305 163c-65 0-114-50-114-115s49-115 114-115c65 0 114 50 114 115s-49 115-114 115z m0-153c-23 0-38 15-38 38s15 38 38 38c23 0 38-15 38-38s-15-38-38-38z m458 153c-65 0-115-50-115-115s50-115 115-115c65 0 114 50 114 115s-49 115-114 115z m0-153c-23 0-38 15-38 38s15 38 38 38c23 0 38-15 38-38s-15-38-38-38z m-427 191h408c53 0 103 38 110 91l61 321a30 30 0 0 1-7 31c-8 11-19 15-31 15h-629l-11 92c-8 57-54 99-115 99h-84c-23 0-38-15-38-38s15-38 38-38h84c19 0 34-16 38-35l57-439c12-57 58-99 119-99z m495 382l-53-275c-4-19-19-31-38-31h-408c-19 0-35 15-38 35l-35 271h572z" horiz-adv-x="1000" />

<glyph glyph-name="plus-circle" unicode="&#xe82a;" d="M500 683c-185 0-333-148-333-333s148-333 333-333 333 148 333 333-148 333-333 333z m0-606a272 272 0 0 0-273 273 272 272 0 0 0 273 273 272 272 0 0 0 273-273 272 272 0 0 0-273-273z m152 273c0-18-13-30-31-30h-91v-91c0-18-12-30-30-30-18 0-30 12-30 30v91h-91c-18 0-30 12-30 30 0 18 12 30 30 30h91v91c0 18 12 31 30 31 18 0 30-12 30-31v-91h91c18 0 31-12 31-30z" horiz-adv-x="1000" />

<glyph glyph-name="check-circle" unicode="&#xe82b;" d="M500 808c254 0 458-204 458-458s-204-458-458-458-458 204-458 458 204 458 458 458z m0-83c-208 0-375-167-375-375s167-375 375-375 375 167 375 375-167 375-375 375z m183-220a37 37 0 0 0 54 0 37 37 0 0 0 0-53l-267-265a41 41 0 0 0-26-11 41 41 0 0 0-27 11l-114 114a37 37 0 0 0 0 53 37 37 0 0 0 53 0l88-87z" horiz-adv-x="1000" />
</font>
</defs>
</svg>
